Main » 2014 » August » 16 » Singham Returns (2014) - 1CD - DVDSCR-Rip - Hindi
2:15 PM
Singham Returns (2014) - 1CD - DVDSCR-Rip - Hindi

singamreturns_3b.jpg 

Download torrent: Download Singham Returns (2014) - 1CD - DVDSCR-Rip - Hindi - XviD - MP3 - Mafiaking - TeamTNT ExClusive torrentMagnet linkSend Torrent: Singham Returns (2014) - 1CD - DVDSCR-Rip - Hindi - XviD - MP3 - Mafiaking - TeamTNT ExClusive Singham Returns (2014) - 1CD DVDSCR-Rip Hindi
Info hash: 9E6FE12D8DF538F90E5C744A4375A43FC853F209
Category: Bollywood Movies
Trackers:
15     
Seeds: 8999
Leechers: 93153
Health:
 
Torrent language: Hindi Hindi
Total Size: 696.31 MB
Number of files:
3     
Torrent status: Added by trusted uploader Added by trusted uploader somesh
Torrent added: 2014-08-15 21:19:30   |   Last edit: 2014-08-15 21:22:13 


 




Singham Returns (2014) - 1CD - DVDSCR-Rip - Hindi 








15981250a2a3770f9f004bcdf00afac92833ebdb.png
 
Quote:




General
Unique ID : 174914297431544445642771491001136447207 (0x839744B0208B68ECBCB2AD511B0DFEE7)
Complete name : Singham Returns (2014) - 1CD - DVDSCR-Rip - Hindi - XviD - MP3 - Mafiaking - TeamTNT ExClusive.Avi
Format : Matroska
Format version : Version 4 / Version 2
File size : 693 MiB
Duration : 2h 18mn
Overall bit rate : 700 Kbps
Movie name : Singham Returns (2014) - 1CD - DVDSCR-Rip - Hindi - XviD - MP3 - Mafiaking - TeamTNT ExClusive
Encoded date : UTC 2014-08-15 20:08:04
Writing application : mkvmerge v7.0.0 ('Where We Going') 32bit built on Jun 9 2014 15:08:34
Writing library : libebml v1.3.0 + libmatroska v1.4.1


Video
ID : 1
Format : MPEG-4 Visual
Format profile : Advanced Simple@L5
Format settings, BVOP : Yes
Format settings, QPel : No
Format settings, GMC : No warppoints
Format settings, Matrix : Default (H.263)
Codec ID : V_MS/VFW/FOURCC / XVID
Codec ID/Hint : XviD
Duration : 2h 18mn
Bit rate : 622 Kbps
Width : 640 pixels
Height : 272 pixels
Display aspect ratio : 2.35:1
Frame rate mode : Constant
Frame rate : 29.970 fps
Color space : YUV
Chroma subsampling : 4:2:0
Bit depth : 8 bits
Scan type : Progressive
Compression mode : Lossy
Bits/(Pixel*Frame) : 0.119
Stream size : 615 MiB (89%)
Title : Mafiaking@TeamTNT
Writing library : XviD 1.2.1 (UTC 2008-12-04)
Language : Hindi
Default : Yes
Forced : No


Audio
ID : 2
Format : MPEG Audio
Format version : Version 2
Format profile : Layer 3
Mode : Joint stereo
Mode extension : MS Stereo
Codec ID : A_MPEG/L3
Codec ID/Hint : MP3
Duration : 2h 18mn
Bit rate mode : Constant
Bit rate : 64.0 Kbps
Channel(s) : 2 channels
Sampling rate : 24.0 KHz
Compression mode : Lossy
Delay relative to video : 20ms
Stream size : 63.3 MiB (9%)
Title : Mafiaking@TeamTNT
Language : Hindi
Default : Yes
Forced : No


 



SAMPLE WITH IN TORRENT

screenshots-icon.png

xAXnt7m.jpg

zxu87fA.jpg

7qyVnSb.jpg

dnw1ts2.jpg

7VcNgRM.jpg

yKkC7UF.jpg

xdSj5BG.jpg

g0C67ZG.jpg

WUsFQDW.jpg

J4xO3dZ.jpg

RCeOR5t.jpg

FGr9vUd.jpg

7cSPWMJ.jpg

                                                       7412d3e604e0648651bc4bb3f9fb2bf8.gif

90ffba6c4aa8da93343400a4fe87e83a.jpg

Category: Bollywood Movies | Views: 288 | Added by: Somu | Rating: 0.0/0
Total comments: 0
avatar