Main » 2014 » September » 6 » Raja Natwarlal (2014) - 720p
11:12 PM
Raja Natwarlal (2014) - 720p

 First-Look-Raja-Natwarlal-1.jpg

 

 

Download torrent: Download Raja Natwarlal (2014) - 720p - DVDSCR-Rip - Hindi - x264 - MP3 - Mafiaking - TeamTNT torrentMagnet linkSend Torrent: Raja Natwarlal (2014) - 720p - DVDSCR-Rip - Hindi - x264 - MP3 - Mafiaking - TeamTNT Raja Natwarlal (2014) - 720p 
Info hash: 3F16021C9DD5A62FCE0B64234DFF8B1917CAEF2C
Category: Bollywood Movies
Trackers:
11     
Seeds: 4962
Leechers: 7580
Health:
 
Torrent language: Hindi Hindi
Total Size: 0.99 GB
Number of files:
4     
Torrent status: Added by trusted uploader Added by trusted uploader somesh
Uploader: somesh
Torrent added: 2014-08-31 11:18:52


 
Torrent Description

 










15981250a2a3770f9f004bcdf00afac92833ebdb.png
 
Quote:





IMDB.png


IMDB Rating: 7.6/10.0


GENRE: Drama | Thriller


General
Unique ID : 216067589579693818972363257234438306005 (0xA28D1AA4E04B50088D80B7016CB938D5)
Complete name : Raja Natwarlal (2014) - 720p - DVDSCR-Rip - Hindi - x264 - MP3 - Mafiaking - TeamTNT.mkv
Format : Matroska
Format version : Version 4 / Version 2
File size : 1 008 MiB
Duration : 2h 16mn
Overall bit rate : 1 031 Kbps
Movie name : Raja Natwarlal (2014) - 720p - DVDSCR-Rip - Hindi - x264 - MP3 - Mafiaking - TeamTNT
Encoded date : UTC 2014-08-31 09:59:55
Writing application : mkvmerge v7.0.0 (\'Where We Going\') 32bit built on Jun 9 2014 15:08:34
Writing library : libebml v1.3.0 + libmatroska v1.4.1


Video
ID : 1
Format : AVC
Format/Info : Advanced Video Codec
Format profile : High@L3.1
Format settings, CABAC : Yes
Format settings, ReFrames : 4 frames
Codec ID : V_MPEG4/ISO/AVC
Duration : 2h 16mn
Bit rate : 901 Kbps
Width : 1 280 pixels
Height : 544 pixels
Display aspect ratio : 2.35:1
Frame rate mode : Constant
Frame rate : 25.000 fps
Color space : YUV
Chroma subsampling : 4:2:0
Bit depth : 8 bits
Scan type : Progressive
Bits/(Pixel*Frame) : 0.052
Stream size : 863 MiB (86%)
Title : Mafiaking
Writing library : x264 core 142 r2431 ac76440
Language : Hindi
Default : Yes
Forced : No


Audio
ID : 2
Format : MPEG Audio
Format version : Version 1
Format profile : Layer 3
Codec ID : A_MPEG/L3
Codec ID/Hint : MP3
Duration : 2h 16mn
Bit rate mode : Constant
Bit rate : 128 Kbps
Channel(s) : 2 channels
Sampling rate : 48.0 KHz
Compression mode : Lossy
Delay relative to video : 24ms
Stream size : 125 MiB (12%)
Title : Mafiaking
Writing library : LAMELAME_MAJOR_VERSI
Language : Hindi
Default : Yes
Forced : No



 


[font=\"Times New Roman\"]
SAMPLE WITH IN TORRENT[/font]


screenshots-icon.png

TH9HaHT.jpg

MFMnbkW.jpg

Yckn7uL.jpg

R9V1Q2K.jpg

C9zF9bD.jpg

jLiqrE4.jpg

2jhiFUo.jpg

nKVAXmm.jpg

WXHiXyc.jpg

WIpCngd.jpg

3T1Te3v.jpg

1OIGW1f.jpg

noP693e.jpg

ybvgrCO.jpg

gecpQr5.jpg

bmRawIU.jpg

NT4Z3rs.jpg

1v15Puc.jpg
 

 

Category: Bollywood Movies | Views: 780 | Added by: Somu | Rating: 0.0/0
Total comments: 0
avatar