Main » 2014 » July » 25 » KICK (2014) [1CD] DVDSCR Rip Exclusive torrent
10:48 PM
KICK (2014) [1CD] DVDSCR Rip Exclusive torrent

3TksIYY.jpg

Download torrent: Download KICK (2014) [1CD] DVDSCR Rip Xvid Mp3 TeamTNT Exclusive torrentMagnet linkSend Torrent: KICK (2014) [1CD] DVDSCR Rip Xvid Mp3 TeamTNT Exclusive KICK (2014) [1CD] DVDSCR Rip Exclusive torrent
Info hash: 64D9E4D4742CABE57609154410AB2AB9AF8FEDBE
Category: Bollywood torentz
Trackers:
11    View all torrent trackers >
Seeds: 10247
Leechers: 200572
Health:
 
Torrent language: Hindi Hindi
Total Size: 701.80 MB

 

~~~~MOVIE INFO~~~~
Code:
[color="Red"] Movie:............KICK Source: ..........DVDSCR @ TeamTNT Year:.............2014[/color]

General
Complete name : \KICK.avi
Format : AVI
Format/Info : Audio Video Interleave
File size : 695 MiB
Duration : 2h 25mn
Overall bit rate : 666 Kbps

Video
ID : 0
Format : MPEG-4 Visual
Format profile : Advanced Simple@L5
Format settings, BVOP : 2
Format settings, QPel : No
Format settings, GMC : No warppoints
Format settings, Matrix : Default (H.263)
Codec ID : XVID
Codec ID/Hint : XviD
Duration : 2h 25mn
Bit rate : 576 Kbps
Width : 656 pixels
Height : 272 pixels
Display aspect ratio : 2.40:1
Frame rate : 23.976 fps
Color space : YUV
Chroma subsampling : 4:2:0
Bit depth : 8 bits
Scan type : Progressive
Compression mode : Lossy
Bits/(Pixel*Frame) : 0.135
Stream size : 602 MiB (87%)
Writing library : XviD 1.2.1 (UTC 2008-12-04)

Audio
ID : 1
Format : MPEG Audio
Format version : Version 1
Format profile : Layer 3
Mode : Joint stereo
Mode extension : MS Stereo
Codec ID : 55
Codec ID/Hint : MP3
Duration : 2h 25mn
Source duration : 2h 25mn
Bit rate mode : Constant
Bit rate : 80.0 Kbps
Channel(s) : 2 channels
Sampling rate : 32.0 KHz
Compression mode : Lossy
Stream size : 83.5 MiB (12%)
Alignment : Aligned on interleaves
Interleave, duration : 42 ms (1.00 video frame)
Writing library : LAME3.99r
Encoding settings : -m j -V 4 -q 2 -lowpass 13.5 -b 80

~~~~Screent Shots~~~~

RoXV1qN.jpg
pGjvRiE.jpg
iF90xwp.jpg
BNcYr7z.jpg
eBeDCdz.jpg
YrM47uJ.jpg
ihkRjOb.jpg
P5OM54q.jpg
hZ0LZ8j.jpg
GQuEcDS.jpg
MC4KmG0.jpg
QD7YOy9.jpg
JqSzzGM.jpg
m8Fg1NF.jpg
SywPhzu.jpg
Q2Q8ez4.jpg
DEgW0YI.jpg
gyKYJix.jpg
Category: Torentz 1080p/720p/480p/Dvd Scr | Views: 303 | Added by: Somu | Rating: 0.0/0
Total comments: 0
avatar