Main » 2014 » August » 8 » Its Entertainment (2014) Hindi Movie DvDScr
11:10 PM
Its Entertainment (2014) Hindi Movie DvDScr

 

Its_Entertainment.jpg

Download torrent: Download Its Entertainment (2014) Hindi Movie DvDScr 700MB x264 torrentMagnet link
Info hash: 91D9B3CFD09C4954F68DB76091BBC00D50A0952F
Category:  Bollywood torrents
Trackers:
5     
Seeds: 441  
Leechers: 7316
Health:
 
Torrent language: Hindi Hindi
Total Size: 699.59 MB
Number of files:
1     




Torrent Description

Screenshots:-

image_1.jpg

image_2.jpg

image_3.jpg

image_4.jpg

image_6.jpg

Media Info:-

General
Complete name : It's Entertainment (2014) DVDScr x264 - 1CD- {GreatPalash}.mkv
Format : Matroska
Format version : Version 2
File size : 700 MiB
Duration : 2h 18mn
Overall bit rate : 706 Kbps

Video
ID : 1
Format : AVC
Format/Info : Advanced Video Codec
Format profile : High@L3.0
Format settings, CABAC : Yes
Format settings, ReFrames : 4 frames
Codec ID : V_MPEG4/ISO/AVC
Duration : 2h 18mn
Bit rate : 624 Kbps
Width : 640 pixels
Height : 272 pixels
Display aspect ratio : 2.35:1
Frame rate : 29.970 fps
Color space : YUV
Chroma subsampling : 4:2:0
Bit depth : 8 bits
Scan type : Progressive
Bits/(Pixel*Frame) : 0.120
Stream size : 606 MiB (87%)
Writing library : x264 core 142 r2431 ac76440
Language : English
Default : Yes
Forced : No
DURATION : 02:18:31.569000000
NUMBER_OF_FRAMES : 249098
NUMBER_OF_BYTES : 648400758

Audio
ID : 2
Format : MPEG Audio
Format version : Version 1
Format profile : Layer 3
Mode : Joint stereo
Mode extension : MS Stereo
Codec ID : A_MPEG/L3
Codec ID/Hint : MP3
Duration : 2h 18mn
Bit rate mode : Constant
Bit rate : 80.0 Kbps
Channel(s) : 2 channels
Sampling rate : 32.0 KHz
Compression mode : Lossy
Stream size : 79.3 MiB (11%)
Writing library : LAME3.99r
Encoding settings : -m j -V 4 -q 2 -lowpass 13.5 -b 80
Default : Yes
Forced : No
Category: Bollywood Movies | Views: 105 | Added by: s@mar | Rating: 0.0/0
Total comments: 0
avatar